Advertisement

Deep inside Luana

Advertisement

Advertisement

Duration: 68min 17sec Views: 1 863 Submitted: 1 week ago Submitted by:
Description: The film is about the Italian actress Luan Borgia. Her stories about themselves and pornostseny with her participation. Extras. Information from the CMR player General Format: AVI Format / Info: Audio Video Interleave File size: 519 MiB Duration: 1h 8mn Overall bit rate: 1 062 Kbps Writing library: TMPGEnc 4.0 XPress Version. 4.7.3.292 Video # 0 ID: 0 Format: MPEG-4 Visual Format profile: AdvancedSimple @ L5 Format settings, BVOP: Yes Format settings, QPel: No Format settings, GMC: No warppoints Format settings, Matrix: Default Muxing mode: Packed bitstream Codec ID: XVID Codec ID / Hint: XviD Duration: 1h 8mn Bit rate: 958 Kbps Width: 720 pixels Height: 576 pixels Display aspect ratio: 5: 4 Frame rate: 25.000 fps Standard: PAL Resolution: 24 bits Colorimetry: 4 2: 0 Scan type: Progressive Bits /: 0.092 Stream size: 468 MiB Writing library: XviD 1.0.3 Audio # 1 ID: 1 Format: MPEG Audio Format version: version 1 Format profile: Layer 3 Codec ID: 55 Codec ID / Hint: MP3 duration: 1h 8mn Bit rate mode: Constant Bit rate: 96.0 Kbps Channel: 2 channels Sampling rate: 44.1 KHz Resolution: 16 bits Stream size: 46.8 MiB Alignment: Split accross interleaves Interleave, duration: 250 ms Interleave, preload duration: 216 ms video Quality